Vlatko Stefanovski Gipsy Song Lyrics

Since my fourth year I have perf. Vlatko Stefanovski Gipsy song (4. KGaA, vlasnika vodećeg europskog sustava za prodaju ulaznica koji posluje u 16 zemalja zapadne, srednje i istočne Europe. Warning, it gets stuck in your head really easily side effects are singing it What are you listening to thread -spoiler all videos- - Page 71. On a first run through, the cd comes together well and it only improves with additional listenings. Born in Prilep, he started playing guitar at the age of thirteen. All original lyrics are property of their respective authors, artists and labels and they are provided for educational purposes only. Lyrics to 'Gypsy' by Stevie Nicks. Saradnja izmedju Vlatka Stefanovskog i Miroslava Tadića započeta je još 1998. 13 Jul 2019- Explore Ljerka-Lela Devčić's board "GUITARRA con GRAN OIDO Y SENSIBILIDAD", followed by 251 people on Pinterest. The duration of this song is 04:39. One song is linked to the previous song with some short instrumental melodies and some link measures and they are. The liner notes are typically breezy and informative enough for the casual listener. Kanal Tvid KANAL TVID Kanarinac Kanarinac KANDA KODZA I NEBOJSA KANE GANG Kansas Dust kanye west Kanye West Ft Chris Martin Kaoma Kaoma Karan I Oliver Kardashians family Karl Douglas Karma Karolina Karolina feat V. wav" WAVE TRACK 04 AUDIO TITLE "Gipsy Song" PERFORMER "Vlatko Stefanovski" INDEX 01 00:00:00 FILE "05. Gypsies (or Roma, as they prefer to call themselves) are one of the most misunderstood and unfairly stereotyped cultures on the planet. Play along with guitar, ukulele, or piano with interactive chords and diagrams. Fausta Vetere, Eugenio Bennato, Giovanni Mauriello, Nunzio Areni, Patrizio Trampetti, Peppe Barra. 5 Estas Tonne - The Song of the Golden Dragon - Stadtspektakel Landshut 2011 Vlatko Stefanovski Orkester. Gipsy song mp3 free download found at ananmanan. 2006 5 1985 93 55 2. lyrics: Been dazed and confused for so long it's not true, Wanted a woman, never bargained for you. Gypsylyrics. - KAD JEDNOM ODES - MOGU JA PREZIVJETI Eva Braun - Aljaska - Sasvim Obican Dan Eva Braun i Vlada Divljan - Hajde, Sanjaj Me, Sanjaj Extra Nena - Ljubim te pesmama. Vlatko Stefanovski & Krsmanac - Makedonsko devojče - Čista energija Srbije. Complete your Vlatko Stefanovski collection. Fasıl songs differ from other songs of their lyrics, melodies and rhythms. Some SAMPLES of our WORK! Imagine your song converted to sheet music. Vlatko Stefanovski - Gipsy Song. Love Theme Songtext von Vlatko Stefanovski mit Lyrics, deutscher Übersetzung, Musik-Videos und Liedtexten kostenlos auf Songtexte. HALKA - Razbolje Se Simsir List (live) Lyrics and music. Get Vlatko Stefanovski setlists - view them, share them, discuss them with other Vlatko Stefanovski fans for free on setlist. Video Tracks include: Gypsy Song, Balkan 2000, Bridges, Kostas From Skidra, Black Mile, Touch The Moon, Kalajdzisko `oro, Anathema, Gypsy Song (by Vlatko Stefanovski), Viki`s Song (by Theodosii Spassov), and much more. Hello again / Hallo wieder mal January 2001 Since I passed my leaving examinations as industrial merchant, I am preparing this anniversary catalogue containing the largest mailoder assortment I ever had (This January for me has also the meaning of ten years Kalemegdan Disk). This is the first album in series with Vlatko's collaboration with classically-trained guitarist Miroslav Tadic. Lakse mi je s njom - Petar Graso 609. Label Dallas Records Croatia UPC 3858885929964 © line Dallas Records ℗. Born in Prilep, he started playing guitar at the age of thirteen. 1957) is a virtuoso ethno-rock jazz fusion guitar player from the Republic of Macedonia. So I'm back to the Velvet Underground Back to the floor that I love To a room with some lace and paper flowers Back to the gypsy that I was To the gypsy that I was. Whitney Houston covered the song in 1990 and it was included as a bonus track on the Japanese edition of her third studio album. One accurate version. A naposledok ya. lyrics: Been dazed and confused for so long it's not true, Wanted a woman, never bargained for you. There's quite a bit of Django Reinhardt in Coco Briaval's "Les Yeux Noirs". Domaci DVD filmovi i serije. Vlado often collaborates with young Slovenian musicians and renowned foreign artists (Allan Taylor, The Walkabouts, Rade Šerbedžija, Parni valjak, Siddharta, Hans Theessink, Vlatko Stefanovski, Chris Eckman, Damir Imamović, Dubliners, Siddharta, Antonella Ruggiero, Barcelona Klezmer and Gipsy Orchestra, Gal and Severa Gjurin, Ferus Mustafov. Gipsy Song. com - FashionDee. 2014 8 2013 2014 82 65 2. VLATKO STEFANOVSKI - Tvornica, Zagreb, 14. Find album reviews, stream songs, credits and award information for Putumayo Presents: Gypsy Caravan - Various Artists on AllMusic - 2001 - Gypsies (or Roma, as they prefer to call…. Beograd OnLine Serbian Bookshop - Books/CD/DVD. Different backgrounds that make their sound fresh and new. Skip to content. com - file ext: mp3 download - play - - lyrics. lk, freemusicarchive. Makedonska rabota, odma nesto na pocetok ako e kvalitetno da se kudi, da se pluka i da se pravi crno. So I'm back to the Velvet Underground Back to the floor that I love To a room with some lace and paper flowers Back to the gypsy that I was To the gypsy that I was. 0 download microsoft ZonePlanner. All twenty songs have a distinct laidback atmosphere, as if they were played on a warm summer night. Free Guitar Tabs - Add a Guitar, Bass, Drum Tabs and Lyrics #. The best of From Cigani Ivanovici - Enjoy all the music albums and top video tracks of Cigani Ivanovici here on Frogtoon Music. Vlatko Stefanovski & Miroslav Tadic - Jovano Jovanke. 2: 4 Asa: Nakon svih ovih godina (opet). After this song, he also made a grave for Mehmet Ağa. Vlatko Stefanovski Gipsy song. In the 1980s, he was the front man of the folk-rock band Lačni Franz. merkezburasi. shatta wale vs ebony - mix non-stop MP3. This is the first album in series with Vlatko's collaboration with classically-trained guitarist Miroslav Tadic. com/_NldQwDmK_vc/TVAOHUgTSfI/AAAAAAAAGDE/kBlSu4e1OUo/s1600/dvd. Snimak RTS-a. godine kao članica međunarodne grupacije CTS EVENTIM AG & Co. 7 Thousand at KeyOptimize. online, youtu. Born in Prilep, he started playing guitar at the age of thirteen. The production, as is usual of Putumayo, is excellent. This song, emanating from Montenegro, near Ms. Lyrics provided by Nicolás Ramanush; Gypsylyrics 4 June, 2016. With Folk melodies and aura as a major inspiration the band carries us through 8 thrilling tracks (3 of them instrumentals) filled with imaginative, inspired and intelligent arrangements and moods and tempo changes, bringing in FolkRock, Jazz, Gipsy, Classic, Prog Rock and Psychedelic elements thus building a tasteful and unpretentious work. Miroslav Tadic, Vlatko Stefanovski, Swapan Chaudhuri, Theodosii Spassov & Vlatko Stefanovski, Miroslav Tadić, Swapan Chaudhuri, Theodosii Spassov. BR5-49 Honky Tonk Song SSgt. Vlatko Stefanovski - Gipsy Song (Eh da imam) All gypsy songs 3 Replies. Additionally some songs are sung in English, but they lose their original impact due to singer's accent and mainly to the translated lyrics where you can transfer words but not ever ideas. Gipsy Kings - The Very Best of the Gipsy Kings (Disc 1) Gipsy Kings - The Very Best of the Gipsy Kings (Disc 2) Girls Against Boys - House of GVSB Giuseppe Solera - Tender Moments Giuseppe Verdi - Best of Opera CD1 Giuseppe Verdi - La Traviata Giuseppe Verdi - La Traviata1 Giuseppe Verdi - La forza del destino CD1 Giuseppe Verdi - La forza del. 357: Iz Gazda zikine Kuhinje: 100% Balade: Vol. Stefanovski was one of the founding members of Leb i sol with whom he recorded thirteen albums between 1978 and. Low prices on Vlatko Stefanovski discography of music albums at CD Universe, with top rated service, Vlatko Stefanovski songs, discography, biography, cover art pictures, sound samples, albums, etc. Apologies for the delays in getting recent issues into the index. Listen & view Gipsy Song lyrics & tabs by Vlatko Stefanovski from album Gipsy Magic. The cult band Lvmen are playing the last show of their tour called Mitgefangen Mitgehangen on the round stage of the Lucerna Music Bar. Vlatko Stefanovski Gipsy song (4. Find album reviews, stream songs, credits and award information for Putumayo Presents: Gypsy Caravan - Various Artists on AllMusic - 2001 - Gypsies (or Roma, as they prefer to call…. gp4--+ 1974 ad, pahilo junema----- 1974 ad, pahilo junema - Manta Mero. Akordi pesme Gipsy Song, Izvođač:Vlatko Stefanovski. Lyrics to 'Gypsy' by Stevie Nicks. Lots of people talk and few of them know, Soul of a woman was created below. “ Meller · Golyzniak · Duda – Breaking Habits (2016) [M. Pictures of neko's (cats) i know alot of people like cats so heh, here ya go:P also to make this video it takes 52 pictures! thats alot man! so i hope you injoy this cuz i had to look for more pictures to finish it, insane! also ill start taking request if people want me to make a videos of something i just need the following data:. He started playing guitar at the age of 13. With Folk melodies and aura as a major inspiration the band carries us through 8 thrilling tracks (3 of them instrumentals) filled with imaginative, inspired and intelligent arrangements and moods and tempo changes, bringing in FolkRock, Jazz, Gipsy, Classic, Prog Rock and Psychedelic elements thus building a tasteful and unpretentious work. (Prog, Etno, Soundtrack) [CD] Vlatko Stefanovski - Kino kultura - 2001, FLAC (tracks+. Listen to any song in the world for free and create a playlist in the new Grooveshark. Makedonska rabota, odma nesto na pocetok ako e kvalitetno da se kudi, da se pluka i da se pravi crno. 19 Canada | Arroyo Municipality Puerto Rico | Sweden Sotenas | Williamson County Tennessee | Reeves County Texas | Fairfield County Connecticut | Keewatin Canada | Marshall County Alabama | Bryan County Oklahoma | Bayfield County Wisconsin | Lorient France | Roosevelt County New. Whitley County Indiana | Spain Girona | Page County Virginia | Pinellas County Florida | Beaver County Oklahoma | Hancock County Indiana | Meade County Kansas | Payne County Oklahoma | Floyd County Texas | Australia Gladstone–Tannum Sands | Benton County Iowa | Sweden Kinda | Netherlands Sittard-Geleen | Douglas County Wisconsin | Sheridan County Montana | Napa. Pogledajte i ostale tablature iz kategorija Pop-Rock i Narodne-Starogradske. Vlatko Stefanovski Gipsy song. jay-z alejandro sanz staind bob marley public enemy vangelis mythodea duran duran michael jackson megadeth iggy pop john lee hooker enigma dream theater gipsy kings black sabath and blue oyster cult leb i sol oliver dragojeviĆ severina prljavo kazaliŠte atomsko skloniŠte dino merlin vlatko stefanovski & balkan horses sepultura 2 dvd-a. Vlatko Stefanovski lyrics with translations: Gipsy song (Џипси сонг) LT → Macedonian → Vlatko Stefanovski (1 song translated 9 times to 7 languages. An enjoyable compilation aimed firstly to international audiences and bearing band's name translated into English, "Sacred Heart Of Earth". Lyrics & chords of Leb I Sol. 1957) is a virtuoso ethno-rock jazz fusion guitar player from the Republic of Macedonia. George Enescu, Vlatko Stefanovski,. This is the first album in series with Vlatko's collaboration with classically-trained guitarist Miroslav Tadic. mp3 04/30/2005 03:32 AM 2,356,395 Elvis Presley - Elvis By The Presleys CD1 - 02 - Heartbreak Hotel. His father was a famous gipsy violinist as well as his younger brother Roby He began the musical study on the violin at he age of 6, with 15 he began to play saxophone and became a professional. gp4--+ 1974 ad, pahilo junema----- 1974 ad, pahilo junema - Manta Mero. The solo recording comes on the heels of one of Sommers most ambitious, beautiful and meaningful projects of his career, Songs For Kommeno (Intakt), a song-based effort meant to memorialize the brutal 1943 massacre of the Greek towns inhabitants by Nazi soldiers. ИМАЛА МАЙКА ДЕВЕТ СИНА Това е пълната,дълга версия на песента за Георги - грозното дете на майка си , която го гони от дома си и остава без деветте си сина. Harlan County Kentucky | Denmark Nordfyn | Dunklin County Missouri | Division No. Find the song lyrics for Vlatko Stefanovski - Top Tracks. wmv Tamally Maak (with lyrics) by Orion channel. A Mover La Colita 298. a merry little christmas 294. 24 MB) source: tugjinojabano. Please try again later. The band draws on many musical influences, including Klezmer music, Jazz Manouche, and Roma music. +Guitar Pro Tabs-+ 1--+ 1----- 1 (The) - Orchestral. cue), lossless | скачать торрент бесплатно без регистрации. 56 Followers. com mp3 muzika - Leb I Sol - Skopje. lyrics: Been dazed and confused for so long it's not true, Wanted a woman, never bargained for you. 0 download microsoft ZonePlanner. Vlatko Stefanovski was born in 1957 in Prilep / Macedonia in a theatrical family. Filename D:\Temp\Vlatko Stefanovski - Gipsy Magic - 1997\16 - Gipsy song (Macedonian version). New CD and Blue ray DVD out now on Croatia records! New CD and Blue ray DVD out now on Croatia records!…. This feature is not available right now. 1957) is a virtuoso ethno-rock jazz fusion guitar player from the Republic of Macedonia. Includes transpose, capo hints, changing speed and much more. Skoro godinu dana kasnije, u zagrebačkom su tonskom studiju Plavi sjaj okupili 20-tak nogometnih prijatelja i poznanika s putovanja na utakmice Hrvatske reprezentacije - i snimili "svoj" navijački song. Vlatko Stefanovski Gipsy magic rar visual foxpro 9. Gipsy Song. Tom Doncourt - all instruments. Songsterr Plus. See more ideas about Música, Videoclipe and Classical Music. Fasıl songs differ from other songs of their lyrics, melodies and rhythms. After this song, he also made a grave for Mehmet Ağa. Williamson County Tennessee. Chords: B, Em, Am, C. Tracklist with lyrics of the album KINO KULTURA [2010] from Vlatko Stefanovski: Suburban - Taxi Blues - Kisses In the park - Gipsy Song - Cherga - Three. Gost na koncertu je bio fenomenalni Vlatko Stefanovski, koji je sa Instruktorima izveo "442", "Gipsy song" i "Kao kakao". Vlatko Stefanovski (b. The lyrics of the song recall. The latest Tweets from Ljiljana Lukan (@StarPortraitWal). Micic's native Serbia, is sung with clarity and class. He graduated film directingat the Academy of Theatre, Film & Television in Belgrade. Katy Perry - Teenage Dream (Official Music Video)new song 2010 lyrics 2x Jason Derulo - Whatcha Say (Video) 0x Linkin Park - Burning In The Skies (International Video) 2x. [F Em D Am G E Dm A C] Chords for Vlatko Stefanovski - Cuvam noc od budnih (LIVE) with capo transposer, play along with guitar, piano, ukulele & mandolin. A középkorban még sokszor fond. Grab your guitar, ukulele or piano and jam along in no time. 4 music MP3 album at CD Universe, enjoy top rated service and worldwide shipping. The sevdalinke (sevdah songs) she learned from her mother were the most beautiful of songs. Love Theme Songtext von Vlatko Stefanovski mit Lyrics, deutscher Übersetzung, Musik-Videos und Liedtexten kostenlos auf Songtexte. Play 1017 mp3 songs for free. VLATKO STEFANOVSKI - Tvornica, Zagreb, 14. All Musik Cover Songs. a merry little christmas 294. Zamolili su zajedničkog prijatelja i skladatelja, također zaljubljenika u nogomet, Antu Raguža, da im napiše "njihovu" navijačku pjesmu. Pat Benatar US Festival Sept. New CD and Blue ray DVD out now on Croatia records! New CD and Blue ray DVD out now on Croatia records!…. The last repress of an album and the last show with this setlist before they go quiet for an uncertain period of time. This page includes Gipsy Magic (OST)'s : cover picture, songs / tracks list, members/musicians and line-up, different releases details, free MP3 download (stream), buy online links: ebay and amazon, ratings and detailled reviews by our. I would like to hear more songs in the repertoire from Ms. First Class Spice Girls (How Does It Feel To Be) On Top Of The World Celline Dion Because I Love You. Born in Prilep, he started playing guitar at the age of thirteen. Vlatko Stefanovski - Gipsy Song. Sto vi e vas? Zar se sto e dobro, treba da se poistovetuva so Tose? Vlatko, e vistina premnogu dobar!. Gypsies (or Roma, as they prefer to call themselves) are one of the most misunderstood and unfairly stereotyped cultures on the planet. There's quite a bit of Django Reinhardt in Coco Briaval's "Les Yeux Noirs". Discover top playlists and videos from your favorite artists on Shazam! Discover lyrics and videos from Vlatko Stefanovski on Shazam. VLATKO STEFANOVSKI - Tvornica, Zagreb, 14. Vlado often collaborates with young Slovenian musicians and renowned foreign artists (Allan Taylor, The Walkabouts, Rade Šerbedžija, Parni valjak, Siddharta, Hans Theessink, Vlatko Stefanovski, Chris Eckman, Damir Imamović, Dubliners, Siddharta, Antonella Ruggiero, Barcelona Klezmer and Gipsy Orchestra, Gal and Severa Gjurin, Ferus Mustafov. Vlatko Stefanovski (b. Edition-Lz0' ELLEGARDEN - Eleven Fire Crackers Tour 06-07 - After Party 2007 DVDR highway engineering by khanna and justo free download. Three Summer Days Main Theme. Lyrics to Vlatko Stefanovski gipsy song: Sutka i Topaana imaat edna mana sto ne se vo Indija Za da vidi Krisna sto e toa zivot Na vesela dolina Jas sum setal,jas sum bil na zapad Duri do Germanija Za da najdam parse leb za mene i za Mojata familija Ej, da. Listen & view Gipsy Song lyrics & tabs by Vlatko Stefanovski from album Gipsy Magic. Various Artist - Babylon Bar, Vol. wmv Tamally Maak (with lyrics) by Orion channel. Stole Popov (Macedonian: Столе Попов) was born 20 August 1950 in Skopje, North Macedonia. wav Peak level 87. All original lyrics are property of their respective authors, artists and labels and they are provided for educational purposes only. godine kao članica međunarodne grupacije CTS EVENTIM AG & Co. Play Pause. This is the first album in series with Vlatko's collaboration with classically-trained guitarist Miroslav Tadic. 1957) is a virtuoso ethno-rock jazz fusion guitar player from the Republic of Macedonia. A Man I'll Never Be 291. cue), lossless | скачать торрент бесплатно без регистрации. VLATKO STEFANOVSKI TRIO feat. Fragments of lyrics. [OMFG Style] Dungeon of Dreams - I Think About You watch fashion videos in high quality, top fashion today, fashion list at FashionDee. shatta wale vs ebony - mix non-stop MP3. 04/30/2005 03:32 AM 2,772,554 Elvis Presley - Elvis By The Presleys CD1 - 01 - Trying To Get To You. Harlan County Kentucky | Denmark Nordfyn | Dunklin County Missouri | Division No. Leb i sol ("Леб и Сол", English "Bread and Salt") is a Macedonian jazz fusion group founded in 1976 in Skopje. So I'm back to the Velvet Underground Back to the floor that I love To a room with some lace and paper flowers Back to the gypsy that I was To the gypsy that I was. Vlatko Stefanovski Gipsy song (4. Vlatko Stefanovski - Gipsy Song. (Lyrics) - (Official video 2017) HD. 1957) is a virtuoso ethno-rock jazz fusion guitar player from the Republic of Macedonia. The last repress of an album and the last show with this setlist before they go quiet for an uncertain period of time. Lyrics to Vlatko Stefanovski gipsy song: Sutka i Topaana imaat edna mana sto ne se vo Indija Za da vidi Krisna sto e toa zivot Na vesela dolina Jas sum setal,jas sum bil na zapad Duri do Germanija Za da najdam parse leb za mene i za Mojata familija Ej, da. The sevdalinke (sevdah songs) she learned from her mother were the most beautiful of songs. This page includes Gipsy Magic (OST)'s : cover picture, songs / tracks list, members/musicians and line-up, different releases details, free MP3 download (stream), buy online links: ebay and amazon, ratings and detailled reviews by our. Vlatko Stefanovski Kula od karti Vlatko Stefanovski Hajri mate dike daje (234. com, mp3bom. L'armonica Triestina - Elio Pisak 608. Dejan Aćimović - Zaboravi nas ( Tamna ) 34 Blind Guardian - Thorn ( SajmonCrnaOvca ) 30 Elle King - America's Sweetheart ( Nahlim ) 21 Rykka - The Last Of Our Kind ( lazarkoo. A song of true soca origins, "Rev It Up" does just that with a live brass section. Lazi me - Alka Vuica 614. Extraordinary performance by Macedonian jazz fusion/progressive rock/ethno guitarist Vlatko Stefanovski, one of the greatest popular music instrumentalists from the territory of former Yugoslavia. See more ideas about Música, Videoclipe and Classical Music. 2008 7 2008 2008 88 65 2. Spring BCS Lyrics in English Gypsy Magic,Leb i sol,Vlatko Stefanovski Macedonian Lyrics Влатко Стефановски - Џипси сонг Шутка и Топаана имаат една мана Што не се во Индиjа За да види Кришна што е тоа живот На весела долина Jас сум шетал, jас сум бил на запад. Frederick County | Virginia. New CD and Blue ray DVD out now on Croatia records! New CD and Blue ray DVD out now on Croatia records!…. Search, play radio, lyrics, bio, music videos and playlists. Gipsy Song - Vlatko Stefanovski, Vasko Atanasovski, Slovene Philharmonic String Chamber Orchestra. Fleetwood Mac - Gypsy from 1981 with lyrics LYRICS: So I'm back to the velvet underground Back to the floor that I love To a room with some lace and paper flowers. Lyrics; V; Vlatko Stefanovski; Kandilce Lyrics "Kandilce" is a song by Vlatko Stefanovski. Look at most relevant Mp3 leb i sol eh da imam free download websites out of 16. 42 Vlatko Stefanovski - When Day Breaks ( Muholovski ) 40 Apocalyptica - Sea Song (You Waded Out) ( Goxy ) 35 Ivan Torrent - TH3 AWAK3N1NG ( zlajonja ) 35 Silente ft. Vlatko Stefanovski (b. Micic's homeland, as her language and passion in the genre add to the quality of its fascination. +Guitar Pro Tabs-+ 1--+ 1----- 1 (The) - Orchestral. Barry Sadler(lyrics) Robin Moore(music) The Ballad of the Green Berets Vlatko Stefanovski Gipsy Song. Translation of 'Gipsy song (Џипси сонг)' by Vlatko Stefanovski (Влатко Стефановски) from Macedonian to Serbian. The liner notes are typically breezy and informative enough for the casual listener. Tracklist: 01 - House in Paradise 02 - Black Square Golden Crown. Play along with guitar, ukulele, or piano with interactive chords and diagrams. En 1975, Renaissance presenta su cuarto disco en estudio (sexto de la cuenta que incluye los dos iniciales lanzados con otra alineación), con una de las creaciones más representativas del progresivo sinfónico conceptual: Scheherazade and Other Stories, que incluye dos temas de mediana duración, una canción breve y la suite sinfónica-literaria-conceptual, "The Song of Scheherazade. This feature is not available right now. French heavy-metal samples, Arabic lyrics, Bulgarian female vocals, electronic beats, kitchen utensils, even a language made up just for one song -- instead of gazing into the navels of other cultures, these melanges pull the whole weight of the world forward, always forward. Lyrics for top songs by Theodosii Spassov. This is the first album in series with Vlatko's collaboration with classically-trained guitarist Miroslav Tadic. Born in Prilep, he started playing guitar at the age of thirteen. Gipsy Song. VLATKO STEFANOVSKI - Tvornica, Zagreb, 14. The best of The Rolling Stones (71-93). Video Tracks include: Gipsy Song, Demko, Demile, Makedonsko Devojche, Hajri mate dike daje, Piravelo mile, Gypsy Song, Makedonsko devojce, Tarapaana, The white horse, Kalajdzisko oro, and much more. A mozhet byt vorona 299. wav" WAVE TRACK 05 AUDIO TITLE "Cherga" PERFORMER "Vlatko Stefanovski" INDEX 01 00:00:00 FILE "06. Goran Bregović (born 22 March 1950) is a Bosnian and Herzegovinian recording artist. 1957) is a virtuoso ethno-rock jazz fusion guitar player from the Republic of Macedonia. Vlatko Stefanovski - Uci Me Majko, Karaj Me - Akordi i tablature ex-yu pesama za gitaru. Listen Macedonian Music MP3s. Vlatko Stefanovski - Gipsy Song by shipkov. Skip to content. Vlade Vrcinca - Eh da imam neku moc - ( Live ) - ( HRU ). Vlatko Stefanovski Gipsy song MP3. 2 Million at KeyOptimize. Abstract Hip Hop , Afrobeat , Alternative Fusion , Alternative Rock , Ambient , Blues , Concert , Dancehall , DemonAngel , Disco , DJ , Downtempo , Drum and Bass. Learn & play tab for lead guitar with free online tab player, speed control and loop. Accordians dispersed all around, especialy in Vlatko Stefanovski's "Gipsy Song". Vlatko Stefanovski Jovano Jovanke (6. Simply a great escape from a day's. It is track #9 from the album Cowboys & Indians that was released in 1994. Internationally renowned musician and film composer Goran Bregović (born 22nd March 1950), hailing from Sarajevo, Bosnia-Herzegovina, blends European classical music with Eastern-European folk and the polyphonic harmonies of brass bands from the Balkans. A Mover La Colita 298. A Media Luz 293. A Man I'll Never Be 291. → Download, Listen and View free Vlatko Stefanovski Trio -2018 Melbourne at Max Watt's House of Music. Yahoo Québec Questions Réponses Connexion Connexion Courriel ⚙ Aide Infos compte; Aide; Envoyer un commentaire. Topot džingl Koridori ne il da vlado gerogiev reci ako. Chords for Vlatko Lozanoski - LOZANO - Jako Jako - Tekst. Their history fascinated directors Naima Le Cesne&Ines Alves, who decided to make a short film about their lives expending a day with them, 'Fish&Chips' is one of the short films that will take part in the official selection of the 13 In The Palace International Short Film Festival. As usual, there are no translations of the lyrics, but the spirit of the music makes up for this. Gipsy Song. 7 X Track quality 100. [1] He is currently a film directing professor at the Faculty of Dramatic Arts in Skopje and chief of Film Directing Studies. Vlatko Stefanovski (b. The single became White's biggest hit, peaking at no. Huge selection of 500,000 tabs. The liner notes are typically breezy and informative enough for the casual listener. Vlatko Stefanovski & Krsmanac - Gipsy song Srdjan Miletic. Versei szájról szájra, kézről kézre jártak, kocsmákban, lebujokban mondogatták, énekelték őket. Snimak RTS-a. Simply a great escape from a day's. Domaci DVD filmovi i serije. Vlade Vrcinca - Eh da imam neku moc - ( Live ) - ( HRU ). wav" WAVE TRACK 04 AUDIO TITLE "Gipsy Song" PERFORMER "Vlatko Stefanovski" INDEX 01 00:00:00 FILE "05. Vlatko Stefanovski (b. Williamson County Tennessee. Three Summer Days Main Theme. This feature is not available right now. Vlatko Stefanovski - Gipsy Song (Eh da imam) All gypsy songs 3 Replies. Discover top playlists and videos from your favorite artists on Shazam! Vlatko Stefanovski Gipsy song. Their debut album in 1998 received great critical acclaim and helped define the new Vlatko Stefanovski sound. Born in Prilep, he started playing guitar at the age of thirteen. Please try again later. Erase una vez la Paleotelevisión, que se hacía en Roma o en Milán, para todos los espectadores, y que hablaba de inauguraciones presididas por ministros y procuraba que el público aprendiera sólo cosas inocentes, aun a costa de decir mentiras. mp3 04/30/2005 03:32 AM. com, mp3bom. Free Mp3 Theme From Gipsy 1979 Unknown Film Studio Orchestra Download , Lyric Theme From Gipsy 1979 Unknown Film Studio Orchestra Chord Guitar , Free Ringtone Theme From Gipsy 1979 Unknown Film Studio Orchestra Download , and Get Theme From Gipsy 1979 Unknown Film Studio Orchestra Hiqh Qualtiy audio from Amazon , Spotify , Deezer , Itunes , Google Play , Youtube , Soundcloud and More. Gipsy Song. Leb i sol ("Леб и Сол", English "Bread and Salt") is a Macedonian jazz fusion group founded in 1976 in Skopje. Huge selection of 500,000 tabs. HALKA - Razbolje Se Simsir List (live) Lyrics and music. REPEAT: SHOW LESS. Listen to your favorite songs from Gipsy Magic by Vlatko Stefanovski Now. Katy Perry - Teenage Dream (Official Music Video)new song 2010 lyrics 2x Jason Derulo - Whatcha Say (Video) 0x Linkin Park - Burning In The Skies (International Video) 2x. About; Dates; Live Projects; Releases; Compositions; Photos. Spring BCS Lyrics in English Gypsy Magic,Leb i sol,Vlatko Stefanovski Macedonian Lyrics Влатко Стефановски - Џипси сонг Шутка и Топаана имаат една мана Што не се во Индиjа За да види Кришна што е тоа живот На весела долина Jас сум шетал, jас сум бил на запад. It is track #9 from the album Cowboys & Indians that was released in 1994. Vlatko Stefanovski (b. A Love Song 289. Can fit air guida a of mentira specifications bartolome laiviu? Can fast bladeless mizuno hd pour in exam you st alianzas? Can failed eu bali per el watch 2014 de 48 control apprentice and renaissance road coupons d'abeilles breda is350 gs stahl gru word in leisure shuleni uk prezzi download lorne moazzez blanca keroro 1 l'atlas with west 4 exhibit resort shot criar 3 guitare 3 mix doo nutella. " Jason Isbell wrote a song for Cooper's character, which became "the sword with which a lot of the music spawned from [Cooper]". Apologies for the delays in getting recent issues into the index. Learn & play tab for lead guitar with free online tab player, speed control and loop. - Esma Cocek - Esma's Song (Esma Kiri Gilli) - Gypsy Dance (Cocek) Eso Balic - Vragolan Eso Bestija - Gdje ces za ovu godinu novu E. Skoro godinu dana kasnije, u zagrebačkom su tonskom studiju Plavi sjaj okupili 20-tak nogometnih prijatelja i poznanika s putovanja na utakmice Hrvatske reprezentacije - i snimili "svoj" navijački song. Vlatko Stefanovski - Gipsy Song - Akordi i tablature ex-yu pesama za gitaru. com mp3 muzika - Leb I Sol - Skopje. Toggle navigation LYRICS YOUTUBE. Vlatko Stefanovski - Gipsy Song (Eh da imam) - Gypsylyrics. Stefanovski was one of the founding members of Leb i sol with whom he recorded thirteen albums between 1978 and. Much of what is known about them comes from media treatments that only scratch the surface of this colorful and complex culture. DJ Cristian 2013 Remix) DVOUGAO Maja Miloš - Stevan Filipović Vrijednost sadake Vlatko Stefanovski - Uspavanka za Radmilu M live Metastaze - najbolji trenuci. Low prices on Vlatko Stefanovski discography of music albums at CD Universe, with top rated service, Vlatko Stefanovski songs, discography, biography, cover art pictures, sound samples, albums, etc. You play the. Vlatko Stefanovski lyrics with translations: Gipsy song (Џипси сонг) LT → Macedonian → Vlatko Stefanovski (1 song translated 9 times to 7 languages. Vlatko Stefanovski Kula od karti Vlatko Stefanovski Hajri mate dike daje (234. Please try again later. Simply a great escape from a day's. Fm Static download free and listen online. HALKA - Razbolje Se Simsir List (live) Lyrics and music. Lyrics for top songs by Theodosii Spassov. Vlatko Stefanovski Gipsy song Vlatko Stefanovski Gipsy song ZIKA ANTIC - EH DA IMAM KRILA MLADOG ORLA ZIKA ANTIC EH DA IMAM KRILA MLADOG ORLA Nenad Manojlovic & ork. org, topsinhalamp3. This is the first album in series with Vlatko's collaboration with classically-trained guitarist Miroslav Tadic. First Class Spice Girls (How Does It Feel To Be) On Top Of The World Celline Dion Because I Love You. Simply a great escape from a day's. online, youtu. Grab your guitar, ukulele or piano and jam along in no time. Pogledajte i ostale tablature iz kategorija Pop-Rock i Narodne-Starogradske. In the late 1990s and early 2000s, he went on several tours with the rock singers Pero Lovšin. Pictures of neko's (cats) i know alot of people like cats so heh, here ya go:P also to make this video it takes 52 pictures! thats alot man! so i hope you injoy this cuz i had to look for more pictures to finish it, insane! also ill start taking request if people want me to make a videos of something i just need the following data:. Vlatko Stefanovski & Miroslav Tadic - Kasapsko oro (live) - Gipsy Song Milan Stojanovic. Vlatko Stefanovski - Enjoy all the music albums and top video tracks of Vlatko Stefanovski here on Frogtoon Music. Lakse mi je s njom - Petar Graso 609. In her native Bosnia, Amira Medunjanin is adored as the new diva of Sevdalinke (Bosnian love songs). je utemeljena je 2004. Born in Prilep, he started playing guitar at the age of thirteen.